Kontor Top Of The Clubs Best Of MMXXI (2021) x Best Of 25 Years Kontor Records

    • Official Post


    CD1:


    TITLE "Kontor Top Of The Clubs-Best Of 2021 x Best Of 25 Years Kontor Records"
    FILE "101_VA_-_Kontor_Top_Of_The_Clubs-Best_Of_2021_X_Best_Of_25_Years_Kontor_Records_CD1_Top_Of_The_Clubs.mp3" MP3
    TRACK 01 AUDIO
    TITLE "Your Love (9PM)"
    PERFORMER "ATB, Topic & A7S"
    INDEX 01 00:00:00
    REM COMPOSER ""
    TRACK 02 AUDIO
    TITLE "Friday (Dopamine Re-Edit)"
    PERFORMER "Riton x Nightcrawlers feat. Mufasa & Hypeman"


    CD2:


    PERFORMER "VA"
    TITLE "Kontor Top Of The Clubs-Best Of 2021 x Best Of 25 Years Kontor Records"
    FILE "201_VA_-_Kontor_Top_Of_The_Clubs-Best_Of_2021_X_Best_Of_25_Years_Kontor_Records_CD2_House_Of_House.mp3" MP3
    TRACK 01 AUDIO
    TITLE "Because You Move Me"
    PERFORMER "Tinlicker & Helsloot"
    INDEX 01 00:00:00
    REM COMPOSER ""
    ISRC NGf711706976
    TRACK 02 AUDIO
    TITLE "Fireworks"
    PERFORMER "Purple Disco Machine feat. Moss Kena & The Knocks"


    CD3:


    PERFORMER "VA"
    TITLE "Kontor Top Of The Clubs-Best Of 2021 x Best Of 25 Years Kontor Records"
    FILE "301_VA_-_Kontor_Top_Of_The_Clubs-Best_Of_2021_X_Best_Of_25_Years_Kontor_Records_CD3_Festival_Sounds.mp3" MP3
    TRACK 01 AUDIO
    TITLE "Friendships (Lost My Love)"
    PERFORMER "Pascal Letoublon feat. Leony"
    INDEX 01 00:00:00
    REM COMPOSER ""
    TRACK 02 AUDIO
    TITLE "The Business"
    PERFORMER "Tiesto"


    CD4:


    PERFORMER "VA"
    TITLE "Kontor Top Of The Clubs-Best Of 2021 x Best Of 25 Years Kontor Records"
    FILE "401_VA_-_Kontor_Top_Of_The_Clubs-Best_Of_2021_X_Best_Of_25_Years_Kontor_Records_CD4_25_Years_Kontor_Records.mp3" MP3
    TRACK 01 AUDIO
    TITLE "Never Let Me Down"
    PERFORMER "VIZE & Tom Gregory"
    INDEX 01 00:00:00
    REM COMPOSER ""
    ISRC DEN062003458
    TRACK 02 AUDIO
    TITLE "Are You with Me"
    PERFORMER "Lost Frequencies"

    • Guest information
    Hello,
    do you like the thread,
    do you want to write something about it, then please log in.
    If you do not have a user account, please register, after activation you can use the forum without restrictions.