Cueportal

Das Portal für Cues und Covers

    Letzte Themen

  1. Kontor Top Of The Clubs Vol.93

    • Cue
    • QTC
    5165132132
  2. Deep Dance Presents: Bad Boys Blue

    • Cue
    • QTC
    elbebube
  3. Deep Dance 155 Part 3

    • Cue
    • QTC
    djmastera2000
  4. Deep Dance 155 Part 2

    • Cue
    • QTC
    djmastera2000
  5. Deep Dance 155 Part 1 (Yearmix 2017)

    • Cue
    • QTC
    djmastera2000
  6. SWG - Summer Deephouse Megamix 2020

    • QTC
    Mr.Cue
  7. Milk And Sugar Winter Sessions 2020

    • Cue
    • QTC
    Mr.Cue
  8. House Music Top 200 Vol.20 2021

    • Cue
    • QTC
    Mr.Cue
  9. SWG - Ibiza Techno Megamix 2019

    • Cue
    • QTC
    Mr.Cue
  10. House Music Top 200 Vol.20 2020

    • Cue
    • QTC
    Mr.Cue

  11. More News & Updates

    Kontor - Top of the Clubs

  1. Kontor Top Of The Clubs Vol.93

    • Cue
    • QTC
    5165132132
  2. Kontor Top Of The Clubs Vol.92

    • Cue
    • QTC
    Mr.Cue
  3. Kontor Top Of The Clubs Vol.91

    • Cue
    • QTC
    Mr.Cue
  4. Kontor Top Of The Clubs Vol.90

    • Cue
    • QTC
    Mr.Cue
  5. Kontor Top Of The Clubs Vol.89

    • Cue
    • QTC
    • Shop
    Mr.Cue
  6. Kontor Top Of The Clubs Vol.88

    • Cue
    • QTC
    • Shop
    Mr.Cue
  7. Kontor Top of the Clubs Vol.56

    • Cue
    • QTC
    Korscha123
  8. Kontor Top of the Clubs Vol.57

    • Cue
    • QTC
    Korscha123
  9. Kontor Top of the Clubs Vol. 48

    • Kontor
    • Cue
    djpopeye
  10. Kontor Top of the Clubs Vol. 08

    • Cue
    • QTC
    djpopeye

  11. More News & Updates

Unread News

  • 02

    Apr

    2022

  • 000_va-dream_dance_vol.86-3cd-2019-front.jpg
  • Dream Dance Vol.86

    ?thumbnail=1


    Name: Dream Dance Vol.86
    Label: Sme Media (Sony Music)
    Serie: Dream Dance
    Format: 2 x CD,Compilation CD,Mixed
    Veröffentlicht: 04.01.2019
    Land: Germany, Austria, & Switzerland
    Gernre: Dance & Electronic, Trance
    Stil: Trance, Progressive Trance
    Cue: CD3
    Shop:
    Cuedatenbank: Dream Dance Vol.86

  • 23

    Dec

    2017

  • money2.png
  • Aktuell ist in Deutschland die Erhebung von Gebühren für die Wahl bestimmter Zahlungsarten zwar reguliert, aber grundsätzlich möglich. Der Deutsche Bundestag hat nun ein Verbot für die Erhebung von Zahlartgebühren für bestimmte Zahlungsarten beschlossen. Dieses Gesetz tritt am 13. Januar 2018 in Kraft!

  • 22

    Jan

    2017

  • Kontor Trapical 2017-Front.jpg
  • Name: Kontor Trapical 2017
    Erscheinungsdatum: 20.01.2017
    Anzahl-CDs: 3 (63 Tracks)
    Genre: Tropical House, Future Bass, Trap, Trapical
    Label: Kontor Records (Edel)
    Cue: CD3
    Download: Frontcover + 1Cue

  • 07

    Jan

    2017

  • Dream Dance Vol.82-Front.jpg

  • Name: Dream Dance Vol.82
    Label: Sme Media (Sony Music)
    Serie: Dream Dance
    Format: 2 x CD,Compilation CD,Mixed
    Veröffentlicht: 06.01.2017
    Land: Germany, Austria, & Switzerland
    Gernre: Dance & Electronic, Trance
    Stil: Trance, Progressive Trance
    Cue: CD3
    Shop:
    Cuedatenbank: Dream Dance Vol.82

  • 07

    Jan

    2017

  • Grandmix 2016-Front.jpg

  • Name: Ben Liebrand Grandmix 2016
    Label: Sony Music
    Serie: Grandmix
    Format: 3 x CD, Mixed
    Veröffentlicht: 06.01.2017
    Land: Netherlands
    Gernre: Electronic, Hip Hop, Rock, Reggae, Funk / Soul, Pop
    Stil: Hip Hop, Ragga, Dancehall, Trap, Reggae, Dance-pop, Electro House, House, Post Rock, Deep House, Hardstyle, Jumpstyle, Electro, Tech House, Synth-pop, Disco, Reggae-Pop, Progressive House, Trance, Tribal House
    Cue: CD1/CD2/CD3
    Shop:
    Cuedatenbank: Ben Liebrand Grandmix 2016

Recent Activities

  •  Mr.Cue Posted the thread
    • QTC
    SWG - Summer Deephouse Megamix 2020.





    CD1:

    PERFORMER "VA"
    TITLE "Summer Deephouse Megamix 2020 "
    FILE "01_VA_-_Summer_Deephouse_Megamix_2020_CD1.mp3" MP3
    TRACK 01 AUDIO
    TITLE "Something Special"
    PERFORMER "Ben Delay"
    INDEX 01 00:00:00
    REM COMPOSER ""
    TRACK 02 AUDIO
    TITLE "On Your Skin"
    Thread
  •  Mr.Cue Posted the thread
    • Cue
    • QTC
    Milk And Sugar Winter Sessions 2020.



    CD1:

    PERFORMER "VA"
    TITLE "Winter Sessions 2020 (Mixed by Milk & Sugar)"
    FILE "01_VA_-_Winter_Sessions_2020_(Mixed_By_Milk_and_Sugar)_CD1.mp3" MP3
    TRACK 01 AUDIO
    TITLE "Home (Sebb Junior Extended Remix)"
    PERFORMER "Rogerio Lopez & Tim Porta feat. Julie…
    Thread
  •  Mr.Cue Posted the thread
    • Cue
    • QTC
    House Music Top 200 Vol.20 2021.





    CD1:

    PERFORMER "VA"
    TITLE "House Top 200 Megamix 2021 Vol.21"
    FILE "VA - House Music Top 200 - The Ultimate Megamix Vol.21 [2021] CD1.mp3" MP3
    TRACK 01 AUDIO
    TITLE "Last Flame"
    PERFORMER "Darius & Finlay & Lotus feat. Snoop Dogg"
    INDEX 01 00:00:00
    REM…
    Thread
  •  Mr.Cue Posted the thread
    • Cue
    • QTC
    SWG - Ibiza Techno Megamix 2019.





    CD1:

    PERFORMER "VA"
    TITLE "Ibiza Techno Megamix 2019"
    FILE "01_va_-_ibiza_techno_megamix_2019_cd1.mp3" MP3
    TRACK 01 AUDIO
    TITLE "Dark Nights In Bordeaux"
    PERFORMER "Tom Wax & Rummy Sharma"
    INDEX 01 00:00:00
    TRACK 02 AUDIO
    TITLE "Check Yourself"
    PERFORMER…
    Thread
  •  Mr.Cue Posted the thread
    • Cue
    • QTC
    House Music Top 200 Vol.20 2020.



    CD1:

    PERFORMER "VA"
    TITLE "House Music Top 200 Vol.20"
    FILE "01_VA_-_House_Music_Top_200_Vol.20_CD1.mp3" MP3
    TRACK 01 AUDIO
    TITLE "Told You Once"
    PERFORMER "Andrew Spencer"
    INDEX 01 00:00:00
    REM COMPOSER ""
    TRACK 02 AUDIO
    TITLE "If I Got U"
    PERFORMER "Max…
    Thread
  •  Mr.Cue Posted the thread
    • Cue
    • QTC
    House Music Top 200 Vol.18 2019.





    CD1:

    PERFORMER "VA"
    TITLE "House Music Top 200 Vol.18"
    FILE "01_va_-_house_music_top_200_vol.18_cd1.mp3" MP3
    TRACK 01 AUDIO
    TITLE "OK Without You"
    PERFORMER "Klaas"
    INDEX 01 00:00:00
    TRACK 02 AUDIO
    TITLE "My Love"
    PERFORMER "DJ Timstar"
    [Hidden content]
    CD2:…
    Thread
  •  Mr.Cue Posted the thread
    • Cue
    • QTC
    House Music Top 200 Vol.17 2018.



    CD1:

    PERFORMER "VA"
    TITLE "House Music Top 200 Vol.17"
    FILE "01_va_-_house_music_top_200_vol.17_cd1.mp3" MP3
    TRACK 01 AUDIO
    TITLE "Big Words"
    PERFORMER "Klaas"
    INDEX 01 00:00:00
    TRACK 02 AUDIO
    TITLE "Don't Go 2K18 (Radio Edit)"
    PERFORMER "Marc Kiss & Sawo"
    Thread
  •  Mr.Cue Posted the thread
    • Cue
    • QTC
    House Music Top 200 Vol.19 2019.





    CD1:

    PERFORMER "VA"
    TITLE "House Music Top 200 Vol.19"
    FILE "01_VA_-_House_Music_Top_200_Vol.19_CD1.mp3" MP3
    TRACK 01 AUDIO
    TITLE "Wherever We Are"
    PERFORMER "Newclaes & Matluck"
    INDEX 01 00:00:00
    REM COMPOSER ""
    TRACK 02 AUDIO
    TITLE "Uh La La La"
    PERFORMER…
    Thread
  •  Mr.Cue Posted the thread
    • Cue
    • QTC
    SWG - Deephouse Top 100 Vol.07.





    CD1:

    PERFORMER "VA"
    TITLE "Deephouse Top 100 Vol.7"
    FILE "01_va_-_deephouse_top_100_vol.7_cd1.mp3" MP3
    TRACK 01 AUDIO
    TITLE "Close To You (Danny Carlson & Robin Tune Remix)"
    PERFORMER "Klaas"
    INDEX 01 00:00:00
    TRACK 02 AUDIO
    TITLE "Dance Little Sister…
    Thread

Unread Threads

    1. Title
    2. Replies
    3. Last Reply
    1. Kontor Top Of The Clubs Vol.93 1

      • Mr.Cue
    2. Replies
      1
      Views
      55
      1
    3.  5165132132

Participate now!

Don’t have an account yet? Register yourself now and be a part of our community!