Kontor Top Of The Clubs The Biggest Hits Of The Year MMXIX (2019)

    • Official Post


    CD1:


    PERFORMER "VA"
    TITLE "Kontor Top Of The Clubs The Biggest Hits Of The Year MMXIX"
    FILE "01_VA_-_The_Biggest_Hits_Of_The_Year_MMXIX_CD1-TOP_OF_THE_CLUBS.mp3" MP3
    TRACK 01 AUDIO
    TITLE "Stars"
    PERFORMER "VIZE feat. Laniia"
    INDEX 01 00:00:00
    REM COMPOSER ""
    TRACK 02 AUDIO
    TITLE "Piece Of Your Heart"
    PERFORMER "Meduza feat. Goodboys"


    PERFORMER "VA"
    TITLE "Kontor Top Of The Clubs The Biggest Hits Of The Year MMXIX"
    FILE "02_VA_-_The_Biggest_Hits_Of_The_Year_MMXIX_CD2-HOUSE_OF_HOUSE.mp3" MP3
    TRACK 01 AUDIO
    TITLE "Recognise"
    PERFORMER "Lost Frequencies feat. Flynn"
    INDEX 01 00:00:00
    REM COMPOSER ""
    TRACK 02 AUDIO
    TITLE "Narcotic"
    PERFORMER "YouNotUs & Janieck & Senex"

    CD2:



    CD3:


    PERFORMER "VA"
    TITLE "Kontor Top Of The Clubs The Biggest Hits Of The Year MMXIX"
    FILE "03_VA_-_The_Biggest_Hits_Of_The_Year_MMXIX_CD3-FESTIVAL_SOUNDS.mp3" MP3
    TRACK 01 AUDIO
    TITLE "Light"
    PERFORMER "Jerome"
    INDEX 01 00:00:00
    REM COMPOSER ""
    TRACK 02 AUDIO
    TITLE "Turn It Up"
    PERFORMER "Armin van Buuren"

    • Guest information
    Hello,
    do you like the thread,
    do you want to write something about it, then please log in.
    If you do not have a user account, please register, after activation you can use the forum without restrictions.

  •  Mr.Cue

    Added the Label QTC