We would like to point out again that Label Shop means this cue
is only available in the shop!

Kontor Top Of The Clubs Vol.88

    • Official Post

    Nur im Shop erhältlich!


    CD1:


    PERFORMER "VA"
    TITLE "Kontor Top Of The Clubs Vol.88"
    FILE "101_VA_-_Kontor_Top_Of_The_Clubs_Vol._88_CD1_Mixed_By_Jerome.mp3" MP3
    TRACK 01 AUDIO
    TITLE "Sick Of You"
    PERFORMER "Jerome"
    INDEX 01 00:00:00
    REM COMPOSER ""
    TRACK 02 AUDIO
    TITLE "Bist Du Okay "
    PERFORMER "Mark Forster X Vize"


    CD2:


    PERFORMER "VA"
    TITLE "Kontor Top Of The Clubs Vol.88"
    FILE "201_VA_-_Kontor_Top_Of_The_Clubs_Vol._88_CD2_Mixed_By_Markus_Gardeweg.mp3" MP3
    TRACK 01 AUDIO
    TITLE "Like Gold"
    PERFORMER "Loud Luxury & Frank Walker Feat. Stephen Puth"
    INDEX 01 00:00:00
    REM COMPOSER ""
    TRACK 02 AUDIO
    TITLE "What Love Is (Edx's Acapulco At Night Remix)"
    PERFORMER "Tom Gregory"
    INDEX 01 03:14:42


    CD3:


    PERFORMER "VA"
    TITLE "Kontor Top Of The Clubs Vol.88"
    FILE "301_VA_-_Kontor_Top_Of_The_Clubs_Vol._88_CD3_Mixed_By_Mike_Candys.mp3" MP3
    TRACK 01 AUDIO
    TITLE "My Way"
    PERFORMER "Harris & Ford & Mike Candys"
    INDEX 01 00:00:00
    REM COMPOSER ""
    TRACK 02 AUDIO
    TITLE "Need You Now (Neptunica Remix)"
    PERFORMER "Armin Van Buuren Feat. Jake Reese"

    • Guest information
    Hello,
    do you like the thread,
    do you want to write something about it, then please log in.
    If you do not have a user account, please register, after activation you can use the forum without restrictions.

  •  Mr.Cue

    Closed the thread.